img

Статистика раздачи
Размер: 497.47 МБ | Добавлен: 18 июн 2015, 07:13 | Скачали: 226
Сидеров: 1  [0 байт/сек]    Личеров: 0  [0 байт/сек]
Пред. тема | След. тема 
Автор Сообщение

СообщениеДобавлено: 18 июн 2015, 07:13 

Не в сети
Раздал: 163.22 ТБ
Скачал: 73.43 ТБ
Ратио: 2.223
Торренты: 2401
Consumed by Ass




Год производства: 2015 г.

Страна: USA

Жанр: ass worship, Blonde, Busty, Femdom.

Продолжительность: 00:9:20

Студия: FemdomEmpire.com

В ролях: Olivia Austin

Описание:
Mistress Olivia demands that her slaves completely submit to her big, beautiful ass in any way she desires. She enjoys having so much control over a man that he will even lick her ass clean with no questions asked. He is ordered to take off her panties with only his teeth revealing her pretty puckered asshole ready to be licked and serviced. Olivia uses his wet, warm tongue as her own personal ass wipe while denying him any form of pleasure in return.


Тип HD видео: 1080p
Mediainfo
Format : MPEG-4
Format profile : Base Media / Version 2
Codec ID : mp42
File size : 497 MiB
Duration : 9mn 10s
Overall bit rate : 7 574 Kbps
Encoded date : UTC 2015-04-05 13:42:54
Tagged date : UTC 2015-04-05 13:43:25

Video
ID : 1
Format : AVC
Format/Info : Advanced Video Codec
Format profile : Main@L4
Format settings, CABAC : No
Format settings, ReFrames : 2 frames
Format settings, GOP : M=1, N=30
Codec ID : avc1
Codec ID/Info : Advanced Video Coding
Duration : 9mn 10s
Bit rate : 6 978 Kbps
Width : 1 920 pixels
Height : 1 080 pixels
Display aspect ratio : 16:9
Frame rate mode : Constant
Frame rate : 29.970 fps
Color space : YUV
Chroma subsampling : 4:2:0
Bit depth : 8 bits
Scan type : Progressive
Bits/(Pixel*Frame) : 0.112
Stream size : 458 MiB (92%)
Language : English
Encoded date : UTC 2015-04-05 13:42:43
Tagged date : UTC 2015-04-05 13:43:25
Color range : Limited
Color primaries : BT.709
Transfer characteristics : BT.709
Matrix coefficients : BT.709

Audio
ID : 2
Format : AAC
Format/Info : Advanced Audio Codec
Format profile : LC
Codec ID : 40
Duration : 9mn 10s
Source duration : 9mn 10s
Bit rate mode : Constant
Bit rate : 320 Kbps
Channel(s) : 2 channels
Channel positions : Front: L R
Sampling rate : 48.0 KHz
Compression mode : Lossy
Stream size : 20.5 MiB (4%)
Source stream size : 20.5 MiB (4%)
Language : English
Encoded date : UTC 2015-04-05 13:42:43
Tagged date : UTC 2015-04-05 13:43:25

Other #1
ID : 3
Type : Hint
Format : RTP
Codec ID : rtp
Duration : 9mn 10s
Title : Hinted Sound Track
Language : English
Encoded date : UTC 2015-04-05 13:42:43
Tagged date : UTC 2015-04-05 13:43:25
Source duration : 550955
Source frame count : 18382
Source stream size : 1001440
Stream size : 1001440
Bit rate mode : VBR

Other #2
ID : 4
Type : Hint
Format : RTP
Codec ID : rtp
Duration : 9mn 10s
Title : Hinted Video Track
Language : English
Encoded date : UTC 2015-04-05 13:42:46
Tagged date : UTC 2015-04-05 13:43:25



Правила, инструкции, FAQ!!!
Добавлен  18 июн 2015, 07:13

Скачать торрент Магнет ссылка
Скачать торрент
19.8 КБ

Статус
 
Размер  497.47 МБ
Приватный: Нет (DHT включён)
.torrent скачан  226
 




Вернуться к началу
    Профиль Отправить личное сообщение
Страница 1 из 1
Показать сообщения за:  Поле сортировки  
Начать новую тему Ответить на тему


Сейчас этот форум просматривают: нет зарегистрированных пользователей и гости: 1


Вы не можете начинать темы
Вы не можете отвечать на сообщения
Вы не можете редактировать свои сообщения
Вы не можете удалять свои сообщения
Вы не можете добавлять вложения

Перейти:  
Для Мосгорсуда, Роскомнадзора и рекламодателей: mosgorsud-torrent[собачка]yandex.ru
ppkBB3cker v.2 © 2008-2014 @ PPK | style by 9CaraTT

Ресурс не предоставляет электронные версии произведений, а занимается лишь коллекционированием и каталогизацией ссылок, присылаемых и публикуемых на форуме нашими читателями. Если вы являетесь правообладателем какого-либо представленного материала и не желаете чтобы ссылка на него находилась в нашем каталоге, свяжитесь с нами и мы незамедлительно удалим её. Файлы для обмена на трекере предоставлены пользователями сайта, и администрация не несёт ответственности за их содержание. Просьба не заливать файлы, защищенные авторскими правами, а также файлы нелегального содержания!